Welcome! Anonymous

Ayuda con AviSynth/MeGUI

Cualquier duda o sugerencia posteala aquí.

Ayuda con AviSynth/MeGUI

Notapor SpamerFaggot » 09 Sep 2011 22:12

Bueno, resulta que hice mis primeros Karaokes en After Effects (CS4) :D y bueno... aqui va el problema:

Por ahí, vi un video tutorial de cómo hacer el <trim>/<overlay> para agregar los Karas al video con MeGUI, de esta manera:
Imagen

Pero al ver el AVS Script, la verdad... es que no obtengo un buen resultado, ya que se ve demasiado transparente, ejemplos:
Imagen
Imagen

Aún así pense... debe ser solo la vista previa la que se ve así, asi que contunué, pero me encontré con otro problema; al encodear, el Queue se detiene en el 2°job -bueno... más bien es como si no empezara nunca- no me reporta ningún error o algo por el estilo, simplemente no avanza para nada (esperé 2 horas, y 40 minutos aprox.), ejemplo de ello:
Imagen

Si alguien fuese tan amable de ayudarme, se lo agradecería mucho :D :D

Les dejo además, la info del material usado:
-Video usado al cual le quiero agregar los Karas:
Código: Seleccionar todo
General
Unique ID                                : 202215113459690269614878609668279952531 (0x982136D7403A96AC95F980C12804E493)
Complete name                            : D:\NICOLÁS\FANSUB\Gantz [Proyecto]\Ripped-muxed.mkv
Format                                   : Matroska
Format version                           : Version 2
File size                                : 270 MiB
Duration                                 : 1mn 32s
Overall bit rate                         : 24.6 Mbps
Encoded date                             : UTC 2011-09-09 14:28:17
Writing application                      : mkvmerge v4.9.1 ('Ich will') built on Jul 11 2011 23:53:15
Writing library                          : libebml v1.2.1 + libmatroska v1.1.1

Video
ID                                       : 1
Format                                   : AVC
Format/Info                              : Advanced Video Codec
Format profile                           : High@L5.0
Format settings, CABAC                   : Yes
Format settings, ReFrames                : 16 frames
Codec ID                                 : V_MPEG4/ISO/AVC
Duration                                 : 1mn 32s
Bit rate                                 : 23.9 Mbps
Nominal bit rate                         : 31.7 Mbps
Width                                    : 720 pixels
Height                                   : 480 pixels
Display aspect ratio                     : 16:9
Original display aspect ratio            : 16:9
Frame rate                               : 23.976 fps
Standard                                 : NTSC
Color space                              : YUV
Chroma subsampling                       : 4:2:0
Bit depth                                : 8 bits
Scan type                                : Progressive
Bits/(Pixel*Frame)                       : 2.879
Stream size                              : 262 MiB (97%)
Writing library                          : x264 core 116 r2074 2641b9e
Encoding settings                        : cabac=1 / ref=16 / deblock=1:1:1 / analyse=0x3:0x133 / me=tesa / subme=11 / psy=1 / psy_rd=0.40:0.00 / mixed_ref=1 / me_range=24 / chroma_me=1 / trellis=2 / 8x8dct=1 / cqm=0 / deadzone=21,11 / fast_pskip=0 / chroma_qp_offset=-2 / threads=6 / sliced_threads=0 / nr=0 / decimate=1 / interlaced=0 / bluray_compat=0 / constrained_intra=0 / bframes=16 / b_pyramid=2 / b_adapt=2 / b_bias=0 / direct=3 / weightb=1 / open_gop=0 / weightp=2 / keyint=250 / keyint_min=23 / scenecut=40 / intra_refresh=0 / rc_lookahead=60 / rc=2pass / mbtree=1 / bitrate=31653 / ratetol=1.0 / qcomp=0.60 / qpmin=0 / qpmax=69 / qpstep=4 / cplxblur=20.0 / qblur=0.5 / ip_ratio=1.40 / aq=1:0.60

Audio
ID                                       : 2
Format                                   : AC-3
Format/Info                              : Audio Coding 3
Mode extension                           : CM (complete main)
Codec ID                                 : A_AC3
Duration                                 : 1mn 32s
Bit rate mode                            : Constant
Bit rate                                 : 224 Kbps
Channel(s)                               : 2 channels
Channel positions                        : Front: L R
Sampling rate                            : 48.0 KHz
Bit depth                                : 16 bits
Compression mode                         : Lossy
Stream size                              : 2.46 MiB (1%)



-Karaoke AFX procesado en RGB:
Imagen
Imagen
Código: Seleccionar todo
General
Complete name                            : D:\NICOLÁS\FANSUB\Gantz [Proyecto]\OP_RGB.mp4
Format                                   : MPEG-4
Format profile                           : Base Media / Version 2
Codec ID                                 : mp42
File size                                : 10.2 MiB
Duration                                 : 1mn 29s
Overall bit rate                         : 950 Kbps
Encoded date                             : UTC 2011-09-09 06:08:23
Tagged date                              : UTC 2011-09-09 06:08:23

Video
ID                                       : 1
Format                                   : AVC
Format/Info                              : Advanced Video Codec
Format profile                           : Main@L5.1
Format settings, CABAC                   : Yes
Format settings, ReFrames                : 4 frames
Format settings, GOP                     : M=4, N=33
Codec ID                                 : avc1
Codec ID/Info                            : Advanced Video Coding
Duration                                 : 1mn 29s
Bit rate mode                            : Variable
Bit rate                                 : 942 Kbps
Maximum bit rate                         : 126 Mbps
Width                                    : 720 pixels
Height                                   : 480 pixels
Display aspect ratio                     : 3:2
Frame rate mode                          : Constant
Frame rate                               : 29.970 fps
Standard                                 : NTSC
Color space                              : YUV
Chroma subsampling                       : 4:2:0
Bit depth                                : 8 bits
Scan type                                : Progressive
Bits/(Pixel*Frame)                       : 0.091
Stream size                              : 10.1 MiB (99%)
Language                                 : English
Encoded date                             : UTC 2011-09-09 06:08:23
Tagged date                              : UTC 2011-09-09 06:08:23



-Karaoke AFX procesado en Alpha:
Imagen
Imagen
Código: Seleccionar todo
General
Complete name                            : D:\NICOLÁS\FANSUB\Gantz [Proyecto]\OP_ALPHA.mp4
Format                                   : MPEG-4
Format profile                           : Base Media / Version 2
Codec ID                                 : mp42
File size                                : 4.37 MiB
Duration                                 : 1mn 29s
Overall bit rate                         : 408 Kbps
Encoded date                             : UTC 2011-09-09 06:13:43
Tagged date                              : UTC 2011-09-09 06:13:43

Video
ID                                       : 1
Format                                   : AVC
Format/Info                              : Advanced Video Codec
Format profile                           : Main@L5.1
Format settings, CABAC                   : Yes
Format settings, ReFrames                : 4 frames
Format settings, GOP                     : M=4, N=33
Codec ID                                 : avc1
Codec ID/Info                            : Advanced Video Coding
Duration                                 : 1mn 29s
Bit rate mode                            : Variable
Bit rate                                 : 400 Kbps
Maximum bit rate                         : 126 Mbps
Width                                    : 720 pixels
Height                                   : 480 pixels
Display aspect ratio                     : 3:2
Frame rate mode                          : Constant
Frame rate                               : 29.970 fps
Standard                                 : NTSC
Color space                              : YUV
Chroma subsampling                       : 4:2:0
Bit depth                                : 8 bits
Scan type                                : Progressive
Bits/(Pixel*Frame)                       : 0.039
Stream size                              : 4.29 MiB (98%)
Language                                 : English
Encoded date                             : UTC 2011-09-09 06:13:43
Tagged date                              : UTC 2011-09-09 06:13:43



Eso sería, espero puedan ayudarme ;)
PD: Perdón si es que tiene muchas imagenes, pero quería que no quedarán interrogantes.
Avatar de Usuario
SpamerFaggot
Spamer User
 
Mensajes: 27
Registrado: 04 Ago 2011 15:37
Ubicación: Concepción, Chile

Re: Ayuda con AviSynth/MeGUI

Notapor SpamerFaggot » 09 Sep 2011 23:58

Jaja :lol: apenas hago el tema y ya me solucionaron el problema
Avatar de Usuario
SpamerFaggot
Spamer User
 
Mensajes: 27
Registrado: 04 Ago 2011 15:37
Ubicación: Concepción, Chile

Re: Ayuda con AviSynth/MeGUI

Notapor Shizu » 02 Nov 2011 13:03

lol, yo que ya iba a usar mis amplios conocimientos en encode para encontrar la solución...

:yaoming:
Imagen
Sígueme en mi twitter y en el de Eien:
http://twitter.com/shizuo01
http://twitter.com/eienfansub
Avatar de Usuario
Shizu
Gossip Fan
 
Mensajes: 208
Registrado: 18 Jul 2010 22:47
Ubicación: Guanatos

Re: Ayuda con AviSynth/MeGUI

Notapor SpamerFaggot » 07 Feb 2013 11:55

Haha :lol:
A pasado tiempo...
Qué perry en aquél entonces; usando meGUI a dos pasadas y con el jarsuv xd
Avatar de Usuario
SpamerFaggot
Spamer User
 
Mensajes: 27
Registrado: 04 Ago 2011 15:37
Ubicación: Concepción, Chile


Volver a Dudas y sugerencias

¿Quién está conectado?

Usuarios navegando por este Foro: No hay usuarios registrados visitando el Foro y 1 invitado